Казино видео клипы

Казино видео клипы


Формат: DVD5, DVD Video, MPEG2, AC3
Песня: Концерт в казино Макао
Жанр: Shanson
Продолжительность: 01:13:54
Год выпуска: 2014

Видео: 720х576 (PAL, 16:9), 25,000 fps, MPEG-2,

7369 kbps avg, 0.711 bit/pixel
Аудио: 48.0 КГц, Audio Coding 3, 2 ch, 192 kbps

Доп. информация: Михаил Шуфутинский — Концерт в казино Макао (13.12.2014) в городе Капчагай, близ Алматы

Треклист:
1. Заходите к нам на огонек
2. Две свечи
3. Наколочка
4. Еврейский портной
5. Левый берег Дона
6. Ночной гость
7. Сингарелла
8. Ко всем чертям
9. Вязаный жакет
10. Хозяин-барин
11. Скрипач Моня
12. Бутылка вина
13. Обожаю
14. А душа её ждёт
15. 3-е сентября
16. Марджанджа

Общее
Полное имя : C:Tfileshufutinskij_makao_[tfile.ru]VIDEO_TSVTS_01_1.VOB
Формат : MPEG-PS
Размер файла : 1024 Мбайт
Продолжительность : 18 м.
Режим общего битрейта : Переменный
Общий поток : 7714 Кбит/сек

Видео
Идентификатор : 224 (0xE0)
Формат : MPEG Video
Версия формата : Version 2
Профиль формата : Main@Main
Параметр BVOP формата : Да
Параметр матрицы формата : По умолчанию
Параметр GOP формата : M=3, N=13
Продолжительность : 18 м.
Вид битрейта : Переменный
Битрейт : 7369 Кбит/сек
Максимальный битрейт : 9008 Кбит/сек
Ширина : 720 пикселей
Высота : 576 пикселей
Соотношение сторон : 16:9
Частота кадров : 25,000 кадров/сек
Стандарт вещания : PAL
Цветовое пространство : YUV
Субдискретизация насыщенности : 4:2:0
Битовая глубина : 8 бит
Тип развёртки : Прогрессивная
Метод сжатия : С потерями
Бит/(Пиксели*Кадры) : 0.711
Временной код первого кадра : 00:00:00:00
Оригинал временного кода : Group of pictures header
Размер потока : 978 Мбайт (96%)

Аудио
Идентификатор : 189 (0xBD)-128 (0x80)
Формат : AC-3
Формат/Информация : Audio Coding 3
Расширение режима : CM (complete main)
Параметр Endianness формата : Big
Режим смешивания : DVD-Video
Продолжительность : 18 м.
Вид битрейта : Постоянный
Битрейт : 192 Кбит/сек
Каналы : 2 канала
Расположение каналов : Front: L R
Частота : 48,0 КГц
Битовая глубина : 16 бит
Метод сжатия : С потерями
Размер потока : 25,5 Мбайт (2%)

Оставьте первый комментарий

Оставить комментарий

Ваш электронный адрес не будет опубликован.


*